extratorrent - A Fan Made Alternative Login   |   Register
Important Information
Registrations are open now
-------------------------------------

Please click here to register with Extratorrent2 to recieve latest updates, add bookmarks and to post comments.

Friends
Friends

1) Filebebo
-------------------------------------
2) MoviesDig
-------------------------------------
3) Torrentz2.cc
-------------------------------------
4) Torrents.me

Extratorrent2 > Categories > TV > Game of Thrones (2011) Season 07 S07 (1080p BluRay x265 HEVC 10bit TrueHD 7.1 Aegon) [UTR-HD] torrent


Browse TV torrents

Game of Thrones (2011) Season 07 S07 (1080p BluRay x265 HEVC 10bit TrueHD 7.1 Aegon) [UTR-HD] torrent


Download torrent: Download Game of Thrones (2011) Season 07 S07 (1080p BluRay x265 HEVC 10bit TrueHD 7.1 Aegon) [UTR-HD] torrent Magnet link Bookmark Torrent: Game of Thrones (2011) Season 07 S07 (1080p BluRay x265 HEVC 10bit TrueHD 7.1 Aegon) [UTR-HD]   Game of Thrones (2011) Season 07 S07 (1080p BluRay x265 HEVC 10bit TrueHD 7.1 Aegon) [UTR-HD] torrent
Info hash: 5AA994F87007C300599326005C804CC84059F7D7
Category: Categories > TV
Trackers:
View all torrent trackers >
Health:
 seeds: 9 ,  leechers: 17 |  Update >
Torrent language: English English
Total Size: 29.0 GB
Files List:
7    View torrent files >
Uploader:
UTRCorp
Torrent added: February 8, 2018, 10:30 pm
Tags: utr, qman, game, of, thrones
Users rating: ---, not rated. please login to rate.

Download Game of Thrones (2011) Season 07 S07 (1080p BluRay x265 HEVC 10bit TrueHD 7.1 Aegon) [UTR-HD] torrent



Torrent Description



















Media Information

Media Information


Code:

General
Format                                   : Matroska
Format version                           : Version 4 / Version 2
File size                                : 3.65 GiB
Duration                                 : 58 min 40 s
Overall bit rate mode                    : Variable
Overall bit rate                         : 8 912 kb/s
Movie name                               : Game of Thrones S07E01
Encoded date                             : UTC 2018-02-07 16:36:49
Writing application                      : mkvmerge v19.0.0 ('Brave Captain') 64-bit
Writing library                          : libebml v1.3.5 + libmatroska v1.4.8

Video
ID                                       : 1
Format                                   : HEVC
Format/Info                              : High Efficiency Video Coding
Format profile                           : Main @Main
Codec ID                                 : V_MPEGH/ISO/HEVC
Duration                                 : 58 min 40 s
Bit rate                                 : 4 319 kb/s
Width                                    : 1 920 pixels
Height                                   : 1 080 pixels
Display aspect ratio                     : 16:9
Frame rate mode                          : Constant
Frame rate                               : 23.976 (24000/1001) FPS
Color space                              : YUV
Chroma subsampling                       : 4:2:0
Bit depth                                : 10 bits
Bits/(Pixel*Frame)                       : 0.087
Stream size                              : 1.77 GiB (48%)
Writing library                          : x265 2.6+33-193c2b20b0d8:[Windows][MSVC 1912][64 bit] 10bit
Encoding settings                        : cpuid=1173503 / frame-threads=4 / numa-pools=16 / wpp / no-pmode / no-pme / no-psnr / no-ssim / log-level=2 / input-csp=1 / input-res=1920x1080 / interlace=0 / total-frames=84400 / level-idc=0 / high-tier=1 / uhd-bd=0 / ref=4 / no-allow-non-conformance / no-repeat-headers / annexb / no-aud / no-hrd / info / hash=0 / no-temporal-layers / open-gop / min-keyint=23 / keyint=250 / gop-lookahead=0 / bframes=8 / b-adapt=2 / b-pyramid / bframe-bias=0 / rc-lookahead=80 / lookahead-slices=4 / scenecut=40 / radl=0 / no-intra-refresh / ctu=64 / min-cu-size=8 / rect / amp / max-tu-size=32 / tu-inter-depth=2 / tu-intra-depth=2 / limit-tu=4 / rdoq-level=2 / dynamic-rd=0.00 / no-ssim-rd / signhide / no-tskip / nr-intra=0 / nr-inter=0 / no-constrained-intra / no-strong-intra-smoothing / max-merge=3 / limit-refs=2 / limit-modes / me=3 / subme=3 / merange=57 / temporal-mvp / weightp / weightb / no-analyze-src-pics / deblock=-1:-1 / no-sao / no-sao-non-deblock / rd=6 / no-early-skip / no-rskip / no-fast-intra / no-tskip-fast / no-cu-lossless / b-intra / no-splitrd-skip / rdpenalty=0 / psy-rd=1.50 / psy-rdoq=5.00 / no-rd-refine / no-lossless / cbqpoffs=0 / crqpoffs=0 / rc=crf / crf=19.0 / qcomp=0.60 / qpstep=4 / stats-write=0 / stats-read=0 / ipratio=1.40 / pbratio=1.30 / aq-mode=3 / aq-strength=0.80 / cutree / zone-count=0 / no-strict-cbr / qg-size=32 / no-rc-grain / qpmax=69 / qpmin=0 / no-const-vbv / sar=0 / overscan=0 / videoformat=5 / range=0 / colorprim=2 / transfer=2 / colormatrix=2 / chromaloc=0 / display-window=0 / max-cll=0,0 / min-luma=0 / max-luma=1023 / log2-max-poc-lsb=8 / vui-timing-info / vui-hrd-info / slices=1 / no-opt-qp-pps / no-opt-ref-list-length-pps / no-multi-pass-opt-rps / scenecut-bias=0.05 / no-opt-cu-delta-qp / no-aq-motion / no-hdr / no-hdr-opt / no-dhdr10-opt / analysis-reuse-level=5 / scale-factor=0 / refine-intra=0 / refine-inter=0 / refine-mv=0 / no-limit-sao / ctu-info=0 / no-lowpass-dct / refine-mv-type=0 / copy-pic=1
Language                                 : English
Default                                  : Yes
Forced                                   : No

Audio #1
ID                                       : 2
Format                                   : Atmos / TrueHD
Codec ID                                 : A_TRUEHD
Duration                                 : 58 min 40 s
Bit rate mode                            : Variable
Bit rate                                 : 4 065 kb/s
Maximum bit rate                         : 7 248 kb/s
Channel(s)                               : Object Based / 8 channels
Channel positions                        : Object Based / Front: L C R, Side: L R, Back: L R, LFE
Sampling rate                            :  / 48.0 kHz
Frame rate                               : 1 200.000 FPS (40 spf)
Compression mode                         : Lossless
Stream size                              : 1.67 GiB (46%)
Title                                    : TrueHD Atmos 7.1
Language                                 : English
Default                                  : Yes
Forced                                   : No

Audio #2
ID                                       : 3
Format                                   : AC-3
Format/Info                              : Audio Coding 3
Mode extension                           : CM (complete main)
Format settings, Endianness              : Big
Codec ID                                 : A_AC3
Duration                                 : 58 min 40 s
Bit rate mode                            : Constant
Bit rate                                 : 448 kb/s
Channel(s)                               : 6 channels
Channel positions                        : Front: L C R, Side: L R, LFE
Sampling rate                            : 48.0 kHz
Frame rate                               : 31.250 FPS (1536 spf)
Bit depth                                : 16 bits
Compression mode                         : Lossy
Stream size                              : 188 MiB (5%)
Title                                    : Commentary by John Bradley, Gwendoline Christie and Jeremy Podeswa
Language                                 : English
Default                                  : No
Forced                                   : No

Subtitle
ID                                       : 4
Format                                   : PGS
Muxing mode                              : zlib
Codec ID                                 : S_HDMV/PGS
Codec ID/Info                            : Picture based subtitle format used on BDs/HD-DVDs
Duration                                 : 57 min 10 s
Bit rate                                 : 35.8 kb/s
Count of elements                        : 1454
Stream size                              : 14.7 MiB (0%)
Title                                    : English (SDH)
Language                                 : English
Default                                  : No
Forced                                   : No

Menu
00:00:00.000                             : en:00:00:00.000
00:05:47.681                             : en:00:05:47.681
00:17:05.358                             : en:00:17:05.358
00:26:41.099                             : en:00:26:41.099
00:35:42.766                             : en:00:35:42.766
00:46:41.841                             : en:00:46:41.841
00:51:45.477                             : en:00:51:45.477
00:57:20.062                             : en:00:57:20.062



Source Information


Code:

Release:
Game.of.Thrones.S07.REPACK.BluRay.1080p.TrueHD.Atmos.7.1.AVC.REMUX-FraMeSToR 78.4GB





Note From UTR
We have no issue with individuals posting or re-uploading our torrents on a platform we aren't on. However, if this is something you'd like to do, please do so in a 'as-is' format. We ask that you do not create a new torrent, include all descriptions you see above including the UTR logo, tags, notes and screenshots. If you'd like to become a permanent poster on a website we don't post to, feel free to get in contact with a UniTeam member.



Download Game of Thrones (2011) Season 07 S07 (1080p BluRay x265 HEVC 10bit TrueHD 7.1 Aegon) [UTR-HD] torrent


Related Torrents


Comments   (please login to add your comment!)


Home - Browse Torrents

Made with love by an Extratorrent Fan!