extratorrent - A Fan Made Alternative Login   |   Register
Important Information
Registrations are open now
-------------------------------------

Please click here to register with Extratorrent2 to recieve latest updates, add bookmarks and to post comments.

Friends
Friends

1) Filebebo
-------------------------------------
2) MoviesDig
-------------------------------------
3) Torrentz2.cc
-------------------------------------
4) Torrents.me

Extratorrent2 > Categories > TV > Game of Thrones Season 7[BDRip 1080p AC3][AtaraxiaPrime] torrent


Browse TV torrents

Game of Thrones Season 7[BDRip 1080p AC3][AtaraxiaPrime] torrent


Download torrent: Download Game of Thrones Season 7[BDRip 1080p AC3][AtaraxiaPrime] torrent Magnet link Bookmark Torrent: Game of Thrones Season 7[BDRip 1080p AC3][AtaraxiaPrime]   Game of Thrones Season 7[BDRip 1080p AC3][AtaraxiaPrime] torrent
Info hash: 21B9AE299586C8640B253DA51EA1EBDD832D5F65
Category: Categories > TV
Trackers:
View all torrent trackers >
Health:
 seeds: 3 ,  leechers: 14 |  Update >
Torrent language: English English
Total Size: 27.8 GB
Files List:
8    View torrent files >
Uploader:
Ataraxia
Torrent added: December 28, 2017, 4:51 pm
Users rating: ---, not rated. please login to rate.

Download Game of Thrones Season 7[BDRip 1080p AC3][AtaraxiaPrime] torrent



Torrent Description

GAME OF THRONES: SEASON SEVEN (BLU RAY)
----------------------------------------

Nine noble families fight for control over the mythical lands of Westeros, while a forgotten race returns after being dormant for thousands of years.

EPISODE LIST
----------------------------------------

E01 Dragonstone 2017-07-16
E02 Stormborn 2017-07-23
E03 The Queen's Justice 2017-07-30
E04 The Spoils of War 2017-08-06
E05 Eastwatch 2017-08-13
E06 Beyond the Wall 2017-08-20
E07 The Dragon and the Wolf 2017-08-27

MEDIA INFO
----------------------------------------

General
Complete name : Season 7\E03.The Queen's Justice.mkv
Format : Matroska
Format version : Version 4 / Version 2
File size : 3.86 GiB
Duration : 1 h 2 min
Overall bit rate : 8 850 kb/s
Encoded date : UTC 2017-12-20T15:37:56Z
Writing application : HandBrake 1.0.7 2017040900
Writing library : Lavf57.7.2

Video
ID : 1
Format : AVC
Format/Info : Advanced Video Codec
Format profile :
Format settings : CABAC / 16 Ref Frames
Format settings, CABAC : Yes
Format settings, RefFrames : 16 frames
Codec ID : V_MPEG4/ISO/AVC
Duration : 1 h 2 min
Bit rate : 8 034 kb/s
Width : 1 920 pixels
Height : 1 080 pixels
Display aspect ratio : 16:9
Frame rate mode : Constant
Frame rate : 23.976 (24000/1001) FPS
Color space : YUV
Chroma subsampling : 4:2:0
Bit depth : 8 bits
Scan type : Progressive
Bits/(Pixel*Frame) : 0.162
Stream size : 3.50 GiB (91%)
Writing library : x264 core 148 r2708 86b7198
Encoding settings : cabac=1 / ref=16 / deblock=1:-2:-2 / analyse=0x3:0x133 / me=umh / subme=10 / psy=1 / psy_rd=1.00:0.25 / mixed_ref=1 / me_range=24 / chroma_me=1 / trellis=2 / 8x8dct=1 / cqm=0 / deadzone=6,6 / fast_pskip=1 / chroma_qp_offset=-4 / threads=12 / lookahead_threads=2 / sliced_threads=0 / nr=0 / decimate=0 / interlaced=0 / bluray_compat=0 / constrained_intra=0 / bframes=8 / b_pyramid=2 / b_adapt=2 / b_bias=0 / direct=3 / weightb=1 / open_gop=0 / weightp=2 / keyint=240 / keyint_min=24 / scenecut=40 / intra_refresh=0 / rc_lookahead=60 / rc=crf / mbtree=1 / crf=19.0 / qcomp=0.80 / qpmin=0 / qpmax=69 / qpstep=4 / vbv_maxrate=300000 / vbv_bufsize=300000 / crf_max=0.0 / nal_hrd=none / filler=0 / ip_ratio=1.10 / aq=1:0.50
Default : Yes
Forced : No
Color range : Limited
Color primaries : BT.709
Transfer characteristics : BT.709
Matrix coefficients : BT.709

Audio
ID : 2
Format : AC-3
Format/Info : Audio Coding 3
Codec ID : A_AC3
Duration : 1 h 2 min
Bit rate mode : Constant
Bit rate : 640 kb/s
Channel(s) : 6 channels
Channel positions : Front: L C R, Side: L R, LFE
Sampling rate : 48.0 kHz
Frame rate : 31.250 FPS (1536 SPF)
Bit depth : 16 bits
Compression mode : Lossy
Stream size : 286 MiB (7%)
Title : Surround
Language : English
Service kind : Complete Main
Default : Yes
Forced : No

Text
ID : 3
Format : PGS
Codec ID : S_HDMV/PGS
Codec ID/Info : Picture based subtitle format used on BDs/HD-DVDs
Language : English
Default : No
Forced : No

SCREENSHOTS
----------------------------------------







----------------------------------------

AtaraxiaPrime


Download Game of Thrones Season 7[BDRip 1080p AC3][AtaraxiaPrime] torrent


Related Torrents


Comments   (please login to add your comment!)


Home - Browse Torrents

Made with love by an Extratorrent Fan!