extratorrent - A Fan Made Alternative Login   |   Register
Important Information
Registrations are open now
-------------------------------------

Please click here to register with Extratorrent2 to recieve latest updates, add bookmarks and to post comments.

Friends
Friends

1) Filebebo
-------------------------------------
2) MoviesDig
-------------------------------------
3) Torrentz2.cc
-------------------------------------
4) Torrents.me

Extratorrent2 > Categories > TV > Game of Thrones (2011) Season 7 S07 (1080p Bluray x265 HEVC 10bit AAC 7.1 Tuned Joy) [UTR] torrent


Browse TV torrents

Game of Thrones (2011) Season 7 S07 (1080p Bluray x265 HEVC 10bit AAC 7.1 Tuned Joy) [UTR] torrent


Download torrent: Download Game of Thrones (2011) Season 7 S07 (1080p Bluray x265 HEVC 10bit AAC 7.1 Tuned Joy) [UTR] torrent Magnet link Bookmark Torrent: Game of Thrones (2011) Season 7 S07 (1080p Bluray x265 HEVC 10bit AAC 7.1 Tuned Joy) [UTR]   Game of Thrones (2011) Season 7 S07 (1080p Bluray x265 HEVC 10bit AAC 7.1 Tuned Joy) [UTR] torrent
Info hash: 14F160EAB697EE21B200C8E5008B187B2328636C
Category: Categories > TV
Trackers:
View all torrent trackers >
Health:
 seeds: 8 ,  leechers: 20 |  Update >
Torrent language: English English
Total Size: 9.3 GB
Files List:
23    View torrent files >
Uploader:
UTRCorp
Torrent added: December 30, 2017, 3:46 pm
Tags: utr, joybell
Users rating: ---, not rated. please login to rate.

Download Game of Thrones (2011) Season 7 S07 (1080p Bluray x265 HEVC 10bit AAC 7.1 Tuned Joy) [UTR] torrent



Torrent Description








Media Information

Media Information

Code:

General
Format : Matroska
Format version : Version 4 / Version 2
File size : 976 MiB
Duration : 58 min 40 s
Overall bit rate : 2 327 kb/s
Movie name : Game Of Thrones Season 7 Disc 1
Encoded date : UTC 2017-12-08 02:00:36
Writing application : mkvmerge v16.0.0 ('Protest') 64-bit
Writing library : libebml v1.3.5 + libmatroska v1.4.8
Writing frontend : StaxRip v1.7.0.3

Video
ID : 1
Format : HEVC
Format/Info : High Efficiency Video Coding
Format profile : Main @Main
Codec ID : V_MPEGH/ISO/HEVC
Duration : 58 min 40 s
Bit rate : 1 622 kb/s
Width : 1 920 pixels
Height : 1 080 pixels
Display aspect ratio : 16:9
Frame rate mode : Constant
Frame rate : 23.976 (24000/1001) FPS
Color space : YUV
Chroma subsampling : 4:2:0
Bit depth : 10 bits
Bits/(Pixel*Frame) : 0.033
Stream size : 681 MiB (70%)
Writing library : x265 2.5+31-df2de6ea407d:[Windows][MSVC 1911][64 bit] 10bit
Encoding settings : cpuid=1173503 / frame-threads=3 / numa-pools=8 / wpp / no-pmode / no-pme / no-psnr / ssim / log-level=2 / input-csp=1 / input-res=1920x1080 / interlace=0 / total-frames=84400 / level-idc=0 / high-tier=1 / uhd-bd=0 / ref=4 / no-allow-non-conformance / no-repeat-headers / annexb / no-aud / no-hrd / info / hash=0 / no-temporal-layers / open-gop / min-keyint=23 / keyint=250 / bframes=4 / b-adapt=2 / b-pyramid / bframe-bias=0 / rc-lookahead=25 / lookahead-slices=4 / scenecut=40 / no-intra-refresh / ctu=64 / min-cu-size=8 / rect / no-amp / max-tu-size=32 / tu-inter-depth=1 / tu-intra-depth=1 / limit-tu=0 / rdoq-level=2 / dynamic-rd=0.00 / ssim-rd / signhide / no-tskip / nr-intra=0 / nr-inter=0 / no-constrained-intra / strong-intra-smoothing / max-merge=3 / limit-refs=3 / limit-modes / me=3 / subme=3 / merange=57 / temporal-mvp / weightp / no-weightb / no-analyze-src-pics / deblock=0:0 / sao / sao-non-deblock / rd=4 / no-early-skip / rskip / no-fast-intra / no-tskip-fast / no-cu-lossless / b-intra / no-splitrd-skip / rdpenalty=0 / psy-rd=0.00 / psy-rdoq=1.00 / no-rd-refine / analysis-reuse-mode=0 / no-lossless / cbqpoffs=0 / crqpoffs=0 / rc=abr / bitrate=1620 / qcomp=0.60 / qpstep=4 / stats-write=0 / stats-read=2 / cplxblur=20.0 / qblur=0.5 / ipratio=1.40 / pbratio=1.30 / aq-mode=2 / aq-strength=1.00 / cutree / zone-count=0 / no-strict-cbr / qg-size=32 / no-rc-grain / qpmax=69 / qpmin=0 / no-const-vbv / sar=0 / overscan=0 / videoformat=5 / range=0 / colorprim=2 / transfer=2 / colormatrix=2 / chromaloc=0 / display-window=0 / max-cll=0,0 / min-luma=0 / max-luma=1023 / log2-max-poc-lsb=8 / vui-timing-info / vui-hrd-info / slices=1 / opt-qp-pps / opt-ref-list-length-pps / multi-pass-opt-rps / scenecut-bias=0.05 / no-opt-cu-delta-qp / no-aq-motion / no-hdr / no-hdr-opt / no-dhdr10-opt / analysis-reuse-level=5 / scale-factor=0 / refine-intra=0 / refine-inter=0 / refine-mv=0 / limit-sao / ctu-info=0
Default : Yes
Forced : No

Audio #1
ID : 2
Format : AAC
Format/Info : Advanced Audio Codec
Format profile : LC
Codec ID : A_AAC
Duration : 58 min 40 s
Bit rate : 339 kb/s
Channel(s) : 8 channels
Channel positions : Front: L C R, Side: 4, LFE
Sampling rate : 48.0 kHz
Frame rate : 46.875 FPS (1024 spf)
Compression mode : Lossy
Delay relative to video : 20 ms
Stream size : 142 MiB (15%)
Language : English
Default : No
Forced : No

Audio #2
ID : 3
Format : AAC
Format/Info : Advanced Audio Codec
Format profile : LC
Codec ID : A_AAC
Duration : 58 min 40 s
Bit rate : 80.9 kb/s
Channel(s) : 2 channels
Channel positions : Front: L R
Sampling rate : 48.0 kHz
Frame rate : 46.875 FPS (1024 spf)
Compression mode : Lossy
Delay relative to video : 9 ms
Stream size : 34.0 MiB (3%)
Language : French
Default : No
Forced : No

Audio #3
ID : 4
Format : AAC
Format/Info : Advanced Audio Codec
Format profile : LC
Codec ID : A_AAC
Duration : 58 min 40 s
Bit rate : 82.0 kb/s
Channel(s) : 2 channels
Channel positions : Front: L R
Sampling rate : 48.0 kHz
Frame rate : 46.875 FPS (1024 spf)
Compression mode : Lossy
Delay relative to video : 9 ms
Stream size : 34.4 MiB (4%)
Language : Spanish
Default : No
Forced : No

Audio #4
ID : 5
Format : AAC
Format/Info : Advanced Audio Codec
Format profile : LC
Codec ID : A_AAC
Duration : 58 min 40 s
Bit rate : 83.4 kb/s
Channel(s) : 2 channels
Channel positions : Front: L R
Sampling rate : 48.0 kHz
Frame rate : 46.875 FPS (1024 spf)
Compression mode : Lossy
Delay relative to video : 9 ms
Stream size : 35.0 MiB (4%)
Language : German
Default : No
Forced : No

Audio #5
ID : 6
Format : AAC
Format/Info : Advanced Audio Codec
Format profile : HE-AAC / LC
Codec ID : A_AAC
Duration : 58 min 40 s
Bit rate : 53.7 kb/s
Channel(s) : 2 channels
Channel positions : Front: L R
Sampling rate : 48.0 kHz / 24.0 kHz
Frame rate : 23.438 FPS (1024 spf)
Compression mode : Lossy
Delay relative to video : 31 ms
Stream size : 22.5 MiB (2%)
Language : English
Default : No
Forced : No

Subtitle #1
ID : 7
Format : PGS
Muxing mode : zlib
Codec ID : S_HDMV/PGS
Codec ID/Info : Picture based subtitle format used on BDs/HD-DVDs
Duration : 57 min 10 s
Bit rate : 35.8 kb/s
Count of elements : 1454
Stream size : 14.7 MiB (2%)
Language : English
Default : No
Forced : No

Subtitle #2
ID : 8
Format : VobSub
Muxing mode : zlib
Codec ID : S_VOBSUB
Codec ID/Info : Picture based subtitle format used on DVDs
Duration : 58 min 3 s
Bit rate : 7 345 b/s
Count of elements : 622
Stream size : 3.05 MiB (0%)
Language : French
Default : No
Forced : No

Subtitle #3
ID : 9
Format : VobSub
Muxing mode : zlib
Codec ID : S_VOBSUB
Codec ID/Info : Picture based subtitle format used on DVDs
Duration : 22 min 51 s
Bit rate : 427 b/s
Count of elements : 14
Stream size : 71.5 KiB (0%)
Language : French
Default : No
Forced : No

Subtitle #4
ID : 10
Format : VobSub
Muxing mode : zlib
Codec ID : S_VOBSUB
Codec ID/Info : Picture based subtitle format used on DVDs
Duration : 56 min 47 s
Bit rate : 8 762 b/s
Count of elements : 647
Stream size : 3.56 MiB (0%)
Language : Spanish
Default : No
Forced : No

Subtitle #5
ID : 11
Format : VobSub
Muxing mode : zlib
Codec ID : S_VOBSUB
Codec ID/Info : Picture based subtitle format used on DVDs
Duration : 38 s 323 ms
Bit rate : 15.0 kb/s
Count of elements : 12
Stream size : 70.0 KiB (0%)
Language : Spanish
Default : No
Forced : No

Subtitle #6
ID : 12
Format : VobSub
Muxing mode : zlib
Codec ID : S_VOBSUB
Codec ID/Info : Picture based subtitle format used on DVDs
Duration : 56 min 47 s
Bit rate : 8 536 b/s
Count of elements : 575
Stream size : 3.47 MiB (0%)
Language : Spanish
Default : No
Forced : No

Subtitle #7
ID : 13
Format : VobSub
Muxing mode : zlib
Codec ID : S_VOBSUB
Codec ID/Info : Picture based subtitle format used on DVDs
Duration : 38 s 319 ms
Bit rate : 13.1 kb/s
Count of elements : 12
Stream size : 61.5 KiB (0%)
Language : Spanish
Default : No
Forced : No

Subtitle #8
ID : 14
Format : VobSub
Muxing mode : zlib
Codec ID : S_VOBSUB
Codec ID/Info : Picture based subtitle format used on DVDs
Duration : 56 min 47 s
Bit rate : 8 964 b/s
Count of elements : 528
Stream size : 3.64 MiB (0%)
Language : German
Default : No
Forced : No

Subtitle #9
ID : 15
Format : VobSub
Muxing mode : zlib
Codec ID : S_VOBSUB
Codec ID/Info : Picture based subtitle format used on DVDs
Duration : 17 min 33 s
Bit rate : 608 b/s
Count of elements : 15
Stream size : 78.2 KiB (0%)
Language : German
Default : No
Forced : No

Subtitle #10
ID : 16
Format : VobSub
Muxing mode : zlib
Codec ID : S_VOBSUB
Codec ID/Info : Picture based subtitle format used on DVDs
Duration : 56 min 47 s
Bit rate : 8 865 b/s
Count of elements : 646
Stream size : 3.60 MiB (0%)
Language : Portuguese
Default : No
Forced : No

Subtitle #11
ID : 17
Format : VobSub
Muxing mode : zlib
Codec ID : S_VOBSUB
Codec ID/Info : Picture based subtitle format used on DVDs
Duration : 38 s 323 ms
Bit rate : 14.7 kb/s
Count of elements : 12
Stream size : 69.0 KiB (0%)
Language : Portuguese
Default : No
Forced : No

Subtitle #12
ID : 18
Format : VobSub
Muxing mode : zlib
Codec ID : S_VOBSUB
Codec ID/Info : Picture based subtitle format used on DVDs
Duration : 56 min 47 s
Bit rate : 8 247 b/s
Count of elements : 635
Stream size : 3.35 MiB (0%)
Language : Dutch
Default : No
Forced : No

Subtitle #13
ID : 19
Format : VobSub
Muxing mode : zlib
Codec ID : S_VOBSUB
Codec ID/Info : Picture based subtitle format used on DVDs
Duration : 56 min 47 s
Bit rate : 6 380 b/s
Count of elements : 648
Stream size : 2.59 MiB (0%)
Language : Danish
Default : No
Forced : No

Subtitle #14
ID : 20
Format : VobSub
Muxing mode : zlib
Codec ID : S_VOBSUB
Codec ID/Info : Picture based subtitle format used on DVDs
Duration : 56 min 47 s
Bit rate : 7 532 b/s
Count of elements : 648
Stream size : 3.06 MiB (0%)
Language : Finnish
Default : No
Forced : No

Subtitle #15
ID : 21
Format : VobSub
Muxing mode : zlib
Codec ID : S_VOBSUB
Codec ID/Info : Picture based subtitle format used on DVDs
Duration : 56 min 47 s
Bit rate : 8 026 b/s
Count of elements : 648
Stream size : 3.26 MiB (0%)
Language : Norwegian Bokmal
Default : No
Forced : No

Subtitle #16
ID : 22
Format : VobSub
Muxing mode : zlib
Codec ID : S_VOBSUB
Codec ID/Info : Picture based subtitle format used on DVDs
Duration : 56 min 47 s
Bit rate : 8 275 b/s
Count of elements : 648
Stream size : 3.36 MiB (0%)
Language : Swedish
Default : No
Forced : No

Menu
00:00:00.000 : en:Chapter 01
00:05:47.680 : en:Chapter 02
00:17:05.357 : en:Chapter 03
00:26:41.099 : en:Chapter 04
00:35:42.765 : en:Chapter 05
00:46:41.840 : en:Chapter 06
00:51:45.477 : en:Chapter 07
00:57:20.061 : en:Chapter 08



Source Information

Code:

Release:
00045.m2ts (12.49 GBs)



Download Game of Thrones (2011) Season 7 S07 (1080p Bluray x265 HEVC 10bit AAC 7.1 Tuned Joy) [UTR] torrent


Related Torrents


Comments   (please login to add your comment!)

iron monkey 2     black wives matter     ncis     shyla     batman v superman dual     fun with dick     u best     rectal romance     spivet 3d     supernatural s12e11 x265     hard sell     ugly     adobe mac     queen sex     anal super powers     case no 2115847     star trek horizon     go west     ghosts of     blues 320     gachip336     hindi eng 1080p     providers     tremors 1     


Home - Browse Torrents

Made with love by an Extratorrent Fan!